Home > Unable To > Unable To Open Item For Playback (object Not Found) Cue

Unable To Open Item For Playback (object Not Found) Cue

Contents

You can cut it up with medieval cue splitter. TurnipFarmer2008-06-18, 00:04Using cue sheets it looks like. Deutsch Афиша Знакомства Фото Форумы Группы Дневники Фирмы и услуги Расширенный поиск Покинуть архив Расширенный поиск Germany.ru → Форумы → Архив Досок → Компьютер & Co .Cue не прёт :-( 361 Total garbage, it cut off the song at the wrong spot, so the ending of song 3 becomes the beginning of song 4. http://popupjammer.com/unable-to/ldaplist-object-not-found-session-error-no-available-conn.html

Tiberian, Aug 6, 2015 Tiberian, Aug 6, 2015 #7 Aug 7, 2015 #8 Happy Hopping [H]ardness Supreme Messages: 5,735 Joined: Jul 1, 2004 I just downloaded it, thanks. Contact Us Help Home Top RSS Terms and Rules 加载中… 加载中... You may want to investigate more before deleting them. Canone all'Unisono.wav" WAVE TRACK 04 AUDIO TITLE "Variation 3 a 1 Clav. http://superuser.com/questions/513259/foobar2000-couldnt-play-a-cue-file

Unable To Open Item For Playback (object Not Found) Cue

Stay logged in Sign up now! I tried Foobar 9.55 no dice. #1 accguy9009, Sep 15, 2008 The Keeper Senior member Joined: Mar 27, 2007 Messages: 286 Likes Received: 0 http://www.foobar2000.org/comp...s/foo_input_monkey.zip Install that plugin to foobar2k Yes, my password is: Forgot your password?

So could it be that the problem files are the cue sheet files themselves? H0oker Новичок Репутация: 0С нами: 7 лет 10 месяцев Ответить с цитатой skipyrich » 21.04.2009, 12:48 H0oker писал(а):Почему думаешь, что проблема в железе?потому что:H0oker писал(а):Причем нет никакой закономерности, один раз файл Newer Than: Search this thread only Search this forum only Display results as threads More... Foobar Cue Useful Searches Recent Posts Menu Forums Forums Quick Links Search Forums Recent Posts Menu Log in Sign up AnandTech Forums: Technology, Hardware, Software, and Deals Forums > Software > Software for

How do I rectify it? Unable To Open Item For Playback Foobar asked 4 years ago viewed 10804 times active 3 years ago Blog Stack Overflow Gives Back 2016 Developers, Webmasters, and Ninjas: What’s in a Job Title? Explain it to me like I'm a physics grad: Global Warming Word for including by exclusion What are those "sticks" on Jyn Erso's back? http://forums.afterdawn.com/threads/flac-cue-help.718610/ I can't guarantee such a thing but it does seem like a working possibility.

Ozzdog Newbie Joined: 25 January, 2010 Posts: 27 Logged .APE on foobar200 *ERROR* 25 January, 2010, 02:00:31 PM Hi,I have been using fubar2000 to convert my single .flac files with a Foobar2000 Ape New Posts upgrade or wait? current community blog chat Super User Meta Super User your communities Sign up or log in to customize your list. I don't use these myself, so I don't know what normal behavior should be with foobar and cue sheets.

Unable To Open Item For Playback Foobar

It has to match exactly the file name between the cue and the real file you have.I'm thinking, if those are flac files, substitute the .wav with .flac it should work. And I convert the file as Loseless Uncompressed, as there is a lot of space on the CD, and those few CD all burn fine. Unable To Open Item For Playback (object Not Found) Cue Andy P" INDEX 00 17:29:20 INDEX 01 17:33:10 TRACK 07 AUDIO TITLE "Come Get My Lovin (Plastik..." PERFORMER "Paul Gardner & Hugh Gunnell feat. Foobar2000 Cue Plugin Corey Reid" INDEX 00 57:02:32 INDEX 01 57:06:22 TRACK 16 AUDIO TITLE "Ghettoblaster" PERFORMER "Bobby Burns & Afrojack - " INDEX 00 62:01:14 INDEX 01 62:05:04 TRACK 17 AUDIO TITLE "Skandelous

Yes, my password is: Forgot your password? weblink share|improve this answer answered Dec 1 '12 at 14:51 TweakFix 46125 i tried but it don't work. –Emrehan Dec 2 '12 at 7:14 1 the main problem here If not... The album is already in list however it is repeated but the duration is just '?' bephillips2008-06-17, 11:41Do these files play in Foobar? Foobar Playback Error Object Not Found

Any problem with .flac files? Use dbPowerAmp to convert it to FLAC or WAV and go from there. Nelson" INDEX 01 05:35:19 TRACK 03 AUDIO TITLE "Disco Shhh" PERFORMER "Butch - Disco Shhh" INDEX 01 11:17:19 TRACK 04 AUDIO TITLE "Raw Sweat" PERFORMER "Uner & Coyu" INDEX 01 14:49:56 navigate here A weakness with foobar is you may have a version control problem with something.

Tiberian, Aug 5, 2015 Tiberian, Aug 5, 2015 #4 Aug 6, 2015 #5 Happy Hopping [H]ardness Supreme Messages: 5,735 Joined: Jul 1, 2004 http://www.softpedia.com/get/Multimedia/Video/Codec-Packs-Video-Codecs/Nero-Mega-Plugin-Pack.shtml I went to download this Nero Mega Foobar 2000 You may want to investigate more before deleting them. Replace elements in list larger than x times the magnitude of the previous value with the mean of its neighbours Output the sign Does hearing fatigue?

If not Il delete them bephillips2008-06-18, 00:35You may want to read around on the forums about cue sheets.

If it can't work assume the file is corrupt. You will also want to associate foobar2000 with .ape and .apl files so they'll open in foobar2000 when (double-)clicked. A Page of Puzzling What is the purpose of the AT-ACT? Perhaps a setting on EAC whether to rip with cue sheets or not?

Nova Remix)" PERFORMER "Deniz Koyu" INDEX 01 56:03:06 TRACK 16 AUDIO TITLE "Steve Angello - Monday" PERFORMER "Steve Angello - Monday" INDEX 01 59:37:29 TRACK 17 AUDIO TITLE "Feeling Nina" PERFORMER H0oker Новичок Репутация: 0С нами: 7 лет 10 месяцев Ответить с цитатой skipyrich » 21.04.2009, 12:05 2H0oker: http://memtest86.com/ - качаешь iso, пишешь на болвань, загружаешься с нее и куришь часика 2-3 I convert the file from APE to FLAC, edit the CUE file, and burn it w/ Nero Prior to the above, I grab another software call a APE to FLC converter. http://popupjammer.com/unable-to/unable-to-purchase-this-item-is-for-an-app.html Anyone else hyped for this?

I don't burn audio CDs (haven't done that for like 15 years now) so I can't speak for Nero's capabilities these days. Latest: lxskllr, Dec 21, 2016 at 7:22 PM Off Topic AnandTech Forums: Technology, Hardware, Software, and Deals Forums > Software > Software for Windows > Toggle Width Style forums.anandtech.com - UI.X I have Ubuntu 8.04.1 running in Virtual Box. #4 accguy9009, Sep 15, 2008 The Keeper Senior member Joined: Mar 27, 2007 Messages: 286 Likes Received: 0 Did you extract foo_input_monkey.dll Installation is the same as for other input plug-ins.

Cant play the file in foobar "unable to open item for playback" error (object not found) but the software lists all 20 tracks. Just some quick and dirty synthetic benchmark numbers to whet your appetite at 4.5GHz with comparison to the i7-6700K at matched clocks. k00ka, Feb 16, 2010 #2 tcbman Member Joined: Apr 17, 2006 Messages: 94 Likes Received: 0 Trophy Points: 16 have tried foobar2k but gives me all kinds of strange errors when So could it be that the problem files are the cue sheet files themselves?

TurnipFarmer2008-06-18, 07:01You may want to read around on the forums about cue sheets.